<?xml version="1.0" standalone="no"?>
<!DOCTYPE svg PUBLIC "-//W3C//DTD SVG 1.1//EN" "http://www.w3.org/Graphics/SVG/1.1/DTD/svg11.dtd" >
<svg xmlns="http://www.w3.org/2000/svg">
<metadata>
Created by FontForge 20100212 at Mon Apr 12 12:57:56 2010
 By Chris Lilley,,,
Copyright (c) Tim Ahrens, 2003. All rights reserved.
Converted to SVG and subsetted with permission.
</metadata>
<defs>
<font id="ZCB" horiz-adv-x="454" >
  <font-face 
    font-family="ZC"
    font-weight="700"
    font-variant="small-caps"
    font-stretch="normal"
    units-per-em="1000"
    panose-1="0 0 8 0 0 0 0 0 0 0"
    ascent="698"
    descent="-302"
    x-height="690"
    cap-height="690"
    bbox="-55 -189 732 813"
    underline-thickness="150"
    underline-position="-150"
    stemh="468"
    stemv="547"
    unicode-range="U+0-7F"
  />
    <missing-glyph horiz-adv-x="500" 
d="M50 0v533h400v-533h-400zM100 50h300v433h-300v-433z" />
    <glyph glyph-name="space" unicode=" " horiz-adv-x="170" 
 />
    <glyph glyph-name="exclam" unicode="!" horiz-adv-x="277" 
d="M56 702l187 11l-7 -236l1 -235l-175 -11l1 234zM260 14l-175 -32l-30 181l174 32z" />
    <glyph glyph-name="quotedbl" unicode="&#x22;" horiz-adv-x="412" 
d="M181 425h-135l-5 265h145zM366 425h-135l-5 265h145z" />
    <glyph glyph-name="numbersign" unicode="#" 
d="M8 292h49l8 105h-45v135h54l12 158h147l-11 -158h34l11 158h148l-12 -158h43v-135h-52l-8 -105h46v-135h-56l-11 -157h-148l12 157h-34l-11 -157h-148l12 157h-40v135zM213 397l-8 -105h33l8 105h-33z" />
    <glyph glyph-name="dollar" unicode="$" 
d="M330 765l-2 -120l72 2l1 -204l-152 -1l-2 71c-31 -8 -57 -29 -57 -46c0 -60 246 -65 246 -226c0 -64 -40 -110 -108 -156l2 -140h-191l2 89l-89 -3l-12 215l158 4l9 -82c36 16 65 33 65 50c0 61 -245 61 -245 229c0 70 45 119 115 160l-3 158h191z" />
    <glyph glyph-name="percent" unicode="%" horiz-adv-x="741" 
d="M222 299l-146 -5c-42 58 -69 127 -69 198c0 75 31 143 101 196l145 5c42 -58 69 -127 69 -198c0 -75 -30 -143 -100 -196zM160 390c25 30 37 62 37 97c0 32 -11 68 -27 110c-25 -31 -37 -63 -37 -97c0 -32 10 -68 27 -110zM632 2l-146 -4c-42 57 -69 126 -69 197
c0 75 31 143 100 196l146 5c42 -58 69 -127 69 -197c0 -76 -30 -144 -100 -197zM570 94c25 29 37 62 37 96c0 33 -11 68 -27 110c-26 -30 -38 -62 -38 -97c0 -32 11 -67 28 -109zM689 653l-279 -342l-240 -352l-118 78l278 341l241 353z" />
    <glyph glyph-name="ampersand" unicode="&#x26;" horiz-adv-x="643" 
d="M458 472l128 -100l-147 -193l44 -56l10 104l135 -19l-33 -203l-177 -14l-65 74l-46 -61l-219 -12c-56 70 -77 129 -77 180c0 76 48 134 104 184c-39 58 -58 105 -58 152c0 58 27 111 86 178l215 11c62 -56 85 -106 85 -151c0 -77 -66 -140 -130 -198l31 -44zM192 182
c0 -20 7 -41 24 -66l41 61c-17 20 -34 39 -49 58c-10 -18 -16 -35 -16 -53zM224 527c0 -17 5 -36 16 -61c19 22 31 43 31 65c0 18 -7 36 -23 56c-16 -20 -24 -38 -24 -60z" />
    <glyph glyph-name="parenleft" unicode="(" horiz-adv-x="290" 
d="M304 -38l-156 -78c-85 160 -126 314 -126 464c0 155 45 307 132 458l150 -78c-65 -120 -97 -252 -97 -383s32 -263 97 -383z" />
    <glyph glyph-name="parenright" unicode=")" horiz-adv-x="290" 
d="M-14 728l156 78c84 -160 126 -314 126 -464c0 -155 -45 -306 -132 -458l-150 78c64 120 97 252 97 383s-32 262 -97 383z" />
    <glyph glyph-name="asterisk" unicode="*" horiz-adv-x="376" 
d="M340 432l-107 -64l-45 112l-45 -112l-107 64l78 105l-108 29l50 120l86 -56l-18 135h128l-18 -135l86 56l50 -120l-108 -29z" />
    <glyph glyph-name="plus" unicode="+" horiz-adv-x="372" 
d="M358 254l-93 5l5 -148h-168l6 148l-93 -5v182l93 -5l-6 148h168l-5 -148l93 5v-182z" />
    <glyph glyph-name="comma" unicode="," horiz-adv-x="236" 
d="M44 152l156 4l-21 -271l-138 -1z" />
    <glyph glyph-name="hyphen" unicode="-" horiz-adv-x="237" 
d="M119 269l-108 -5v162l108 -5l108 5v-162z" />
    <glyph glyph-name="period" unicode="." horiz-adv-x="254" 
d="M228 21l-171 -39l-31 177l172 39z" />
    <glyph glyph-name="slash" unicode="/" horiz-adv-x="281" 
d="M283 773l-68 -438l-45 -436l-171 18l63 432l49 441z" />
    <glyph glyph-name="zero" unicode="0" horiz-adv-x="451" 
d="M285 3l-175 -7c-64 107 -106 229 -106 350c0 132 49 250 162 342l174 8c65 -108 107 -230 107 -350c0 -133 -50 -250 -162 -343zM239 565c-46 -49 -73 -103 -81 -164l123 38c-10 41 -25 83 -42 126zM211 127c43 46 70 98 80 155l-122 -29c10 -41 25 -83 42 -126z" />
    <glyph glyph-name="one" unicode="1" horiz-adv-x="369" 
d="M94 688l180 6l-2 -396v-140l97 -3v-155h-369v155l96 3v140z" />
    <glyph glyph-name="two" unicode="2" 
d="M45 440l5 242l219 16c109 -74 150 -145 150 -217c0 -121 -121 -233 -243 -351l103 8l4 92l154 4l-3 -234h-417l-6 166c169 170 232 233 232 296c0 30 -15 55 -46 85l-3 -107h-149z" />
    <glyph glyph-name="three" unicode="3" 
d="M412 524l-83 -120c76 -52 105 -106 105 -162c0 -97 -87 -188 -181 -240l-204 -5l-10 239l154 5l7 -109c35 20 63 50 63 87c0 39 -33 81 -128 140l123 190h-75l-4 -91l-150 2l3 220l377 19z" />
    <glyph glyph-name="four" unicode="4" 
d="M288 665l-57 -178h155l-3 -218l73 2v-151l-71 3l3 -123h-162l3 122l-222 -2l-7 139l133 453zM228 477l-66 -211h69z" />
    <glyph glyph-name="five" unicode="5" 
d="M397 482l-155 -1l-4 64h-52l-2 -84c185 -46 254 -128 254 -218c0 -89 -68 -174 -185 -241l-205 -5l-10 234l153 4l8 -103c42 25 67 57 67 91c0 51 -59 82 -225 120l6 339l349 16z" />
    <glyph glyph-name="six" unicode="6" 
d="M281 671c-48 -91 -81 -186 -92 -282l82 75l131 12c26 -69 40 -151 40 -211c0 -118 -54 -202 -150 -262l-190 -7c-56 99 -80 209 -80 319c0 146 43 283 99 398zM270 324l-80 -73c6 -43 17 -84 34 -123c41 36 56 74 56 125c0 23 -4 48 -10 71z" />
    <glyph glyph-name="seven" unicode="7" 
d="M180 431l-153 2l4 247l402 20l5 -176l-194 -552l-175 50l199 515h-83z" />
    <glyph glyph-name="eight" unicode="8" 
d="M15 199c0 54 21 115 73 169c-39 33 -68 73 -68 127c0 68 48 131 133 191l177 11c58 -50 90 -106 90 -172c0 -48 -16 -103 -64 -162c49 -33 90 -77 90 -146c0 -84 -59 -158 -140 -213l-199 -12c-53 55 -92 133 -92 207zM269 192c0 33 -24 60 -57 86
c-23 -28 -30 -58 -30 -79c0 -31 14 -63 39 -87c32 23 48 50 48 80zM179 506c0 -32 24 -54 58 -75c15 23 22 50 22 70c0 28 -12 58 -33 80c-31 -22 -47 -48 -47 -75z" />
    <glyph glyph-name="nine" unicode="9" 
d="M162 14c52 93 88 192 100 293l-78 -72l-133 -12c-24 62 -39 143 -39 202c0 119 58 204 153 263l192 4c51 -96 73 -201 73 -305c0 -151 -46 -291 -106 -409zM174 433c0 -24 4 -40 9 -60l79 73c-5 40 -15 79 -30 116c-43 -36 -58 -76 -58 -129z" />
    <glyph glyph-name="colon" unicode=":" horiz-adv-x="243" 
d="M219 151l-165 -38l-29 170l165 38zM219 407l-165 -37l-29 170l165 37z" />
    <glyph glyph-name="semicolon" unicode=";" horiz-adv-x="254" 
d="M227 313l-165 -37l-29 170l165 37zM58 152l156 4l-20 -271l-139 -1z" />
    <glyph glyph-name="less" unicode="&#x3c;" horiz-adv-x="372" 
d="M255 107l-231 158v159l231 159l97 -134l-185 -104l185 -104z" />
    <glyph glyph-name="equal" unicode="=" horiz-adv-x="372" 
d="M350 369l-164 5l-163 -5v158l163 -4l164 4v-158zM350 163l-164 5l-163 -5v158l163 -5l164 5v-158z" />
    <glyph glyph-name="greater" unicode="&#x3e;" horiz-adv-x="372" 
d="M117 583l231 -158v-159l-231 -159l-96 134l184 104l-184 104z" />
    <glyph glyph-name="question" unicode="?" horiz-adv-x="365" 
d="M52 555l22 184c212 -18 291 -107 291 -213c0 -131 -123 -157 -123 -228c0 -20 10 -56 19 -77l-166 -51c-21 46 -31 101 -31 141c0 130 115 152 115 195c0 23 -29 39 -127 49zM291 13l-170 -30l-26 153l170 30z" />
    <glyph glyph-name="at" unicode="@" horiz-adv-x="649" 
d="M592 186l43 -110c-75 -37 -176 -66 -269 -66c-176 0 -352 104 -352 342c0 222 154 328 323 328c188 0 301 -132 301 -275c0 -135 -101 -239 -238 -239c-125 0 -204 87 -204 184c0 81 53 150 151 150c61 0 105 -26 133 -94l-91 -56c-10 17 -21 26 -34 26
c-17 0 -28 -15 -28 -34c0 -28 23 -51 66 -51c52 0 102 32 102 103c0 80 -65 147 -159 147c-105 0 -180 -82 -180 -189c0 -117 90 -219 234 -219c66 0 140 20 202 53z" />
    <glyph glyph-name="A" unicode="A" horiz-adv-x="480" 
d="M303 0l-14 119l-52 -3l-55 4l-17 -120h-169l123 687l253 8l112 -695h-181zM202 273l35 3l34 -3l-32 269z" />
    <glyph glyph-name="B" unicode="B" horiz-adv-x="484" 
d="M40 -2l4 359l-4 325l369 17c28 -53 48 -115 48 -169c0 -59 -23 -106 -61 -146c45 -48 73 -107 73 -172c0 -93 -58 -160 -192 -210zM286 225c0 25 -10 47 -27 68c-17 -9 -36 -17 -54 -24l1 -138c55 21 80 53 80 94zM206 549l-1 -143c43 22 74 47 74 88c0 19 -6 42 -10 55
h-63z" />
    <glyph glyph-name="C" unicode="C" horiz-adv-x="462" 
d="M424 435l-162 -5l-2 113h-48c-12 -58 -19 -108 -19 -164c0 -92 16 -179 67 -232l7 137l162 4l-5 -279l-256 -16c-111 102 -148 223 -148 372c0 104 19 211 55 317l352 16z" />
    <glyph glyph-name="D" unicode="D" horiz-adv-x="478" 
d="M40 -2l2 348l-3 336l344 16c52 -119 74 -229 74 -331c0 -143 -44 -265 -165 -366zM205 356l2 -226c52 45 77 113 77 208c0 62 -11 131 -34 208h-45v-190z" />
    <glyph glyph-name="E" unicode="E" horiz-adv-x="473" 
d="M276 229l161 4v-233h-398l4 355l-4 325l398 19l-1 -209l-162 -5l-1 63h-66v-118l169 8v-157l-169 4v-146l68 4z" />
    <glyph glyph-name="F" unicode="F" horiz-adv-x="466" 
d="M221 0h-182l6 338l-5 342l406 19l-2 -236l-161 -5l-1 85h-62v-151l169 9v-174l-169 4z" />
    <glyph glyph-name="G" unicode="G" horiz-adv-x="485" 
d="M437 8l-230 -16c-136 90 -191 221 -191 378c0 98 22 207 59 312l360 16l-1 -222l-165 -2l-2 72h-58c-12 -52 -18 -111 -18 -165c0 -98 22 -196 91 -255l-1 136l-49 3v138h245v-139l-38 -2z" />
    <glyph glyph-name="H" unicode="H" horiz-adv-x="520" 
d="M220 690l-1 -253l41 3l41 -3l-1 253h182l-6 -342l6 -348h-182l1 264l-41 -4l-41 4l1 -264h-182l6 348l-6 342h182z" />
    <glyph glyph-name="I" unicode="I" horiz-adv-x="258" 
d="M38 690h182l-4 -335l4 -355h-182l4 355z" />
    <glyph glyph-name="J" unicode="J" horiz-adv-x="467" 
d="M36 266l162 4l4 -122c47 54 61 111 61 207c0 57 -4 133 -9 188h-52l-3 -107l-161 -2l-3 246l387 18c10 -110 17 -231 17 -310c0 -170 -23 -290 -181 -385l-217 -6z" />
    <glyph glyph-name="K" unicode="K" horiz-adv-x="498" 
d="M38 690h182l-1 -272c64 72 75 156 75 270l180 4c0 -132 -5 -239 -91 -343l125 -349h-197l-65 230l-27 -18l1 -212h-182l6 350z" />
    <glyph glyph-name="L" unicode="L" horiz-adv-x="456" 
d="M285 257l163 1l-2 -258h-406l4 272l-5 418h182l-3 -544l63 6z" />
    <glyph glyph-name="M" unicode="M" horiz-adv-x="715" 
d="M453 28l-197 -4l-37 267l-34 239l7 -530h-157l12 687l253 6l32 -260l28 -241l27 242l33 253l248 5l12 -692h-162l6 530l-33 -235z" />
    <glyph glyph-name="N" unicode="N" horiz-adv-x="535" 
d="M188 0h-153l7 688l216 5l94 -488l-10 485h154l-8 -689l-216 -4l-95 491z" />
    <glyph glyph-name="O" unicode="O" horiz-adv-x="474" 
d="M346 2l-219 -3c-73 92 -113 235 -113 351c0 117 41 244 114 339l219 4c73 -94 113 -236 113 -352c0 -118 -42 -244 -114 -339zM232 548c-26 -64 -38 -134 -38 -198c0 -77 16 -143 48 -207c25 63 38 132 38 199c0 76 -16 143 -48 206z" />
    <glyph glyph-name="P" unicode="P" horiz-adv-x="464" 
d="M213 547l-1 -218c51 26 72 71 72 132c0 26 -4 53 -11 86h-60zM221 0h-182l4 348l-4 334l377 16c24 -84 37 -157 37 -220c0 -144 -67 -244 -235 -314z" />
    <glyph glyph-name="Q" unicode="Q" horiz-adv-x="471" 
d="M458 347c0 -93 -21 -180 -70 -256l103 -140l-143 -103l-104 153l-133 -5c-61 105 -99 226 -99 348c0 132 44 250 144 344l203 8c62 -106 99 -226 99 -349zM228 149c37 54 52 116 52 182c0 69 -15 137 -37 211c-37 -54 -52 -116 -52 -183c0 -68 16 -137 37 -210z" />
    <glyph glyph-name="R" unicode="R" horiz-adv-x="469" 
d="M212 0h-173l4 349l-4 333l375 16c17 -57 30 -123 30 -183c0 -76 -20 -136 -74 -187l108 -328h-190l-60 240l-17 -7zM208 551l-2 -154c53 23 72 56 72 97c0 19 -4 43 -9 57h-61z" />
    <glyph glyph-name="S" unicode="S" horiz-adv-x="402" 
d="M22 234l156 5l8 -102c31 22 54 46 54 72c0 76 -231 80 -231 264c0 103 72 168 177 218l180 4l2 -223l-150 -2l-3 89c-24 -12 -45 -39 -45 -64c0 -78 231 -86 231 -263c0 -95 -67 -158 -174 -229l-194 -6z" />
    <glyph glyph-name="T" unicode="T" horiz-adv-x="423" 
d="M121 0l4 522l-124 -6v174h421v-174l-123 6l4 -522h-182z" />
    <glyph glyph-name="U" unicode="U" horiz-adv-x="516" 
d="M294 686l182 9c0 -12 -4 -212 -4 -313c0 -86 1 -156 22 -376l-178 -13l-10 115l-75 -103l-172 -12c-14 152 -16 255 -17 349l-3 344l184 9c0 -12 -3 -190 -3 -282c0 -78 1 -143 6 -212l69 83z" />
    <glyph glyph-name="V" unicode="V" horiz-adv-x="471" 
d="M184 690l53 -524l63 524h167l-116 -687l-242 -8l-105 695h180z" />
    <glyph glyph-name="W" unicode="W" horiz-adv-x="694" 
d="M526 690h159l-58 -690h-241l-24 262l-18 233l-18 -235l-24 -260h-236l-56 690h164l30 -538l18 228l25 270l206 4l25 -276l17 -226z" />
    <glyph glyph-name="X" unicode="X" horiz-adv-x="489" 
d="M494 690l-117 -341l120 -327l-177 -51l-77 271l-55 -242h-192l118 351l-119 317l177 51l75 -260l54 231h193z" />
    <glyph glyph-name="Y" unicode="Y" horiz-adv-x="477" 
d="M144 0l3 234l-160 434l179 51l76 -291l58 262h190l-166 -471l2 -219h-182z" />
    <glyph glyph-name="Z" unicode="Z" horiz-adv-x="460" 
d="M186 444l-150 2l4 234l381 20l5 -199l-237 -372l97 9l5 106l153 1l-5 -245h-417l-5 163l255 387h-81z" />
    <glyph glyph-name="bracketleft" unicode="[" horiz-adv-x="282" 
d="M194 348l2 -296l85 -2v-149h-244l3 447l-3 441h244v-149l-85 -2z" />
    <glyph glyph-name="backslash" unicode="\" horiz-adv-x="281" 
d="M67 335l-68 438l171 17l49 -441l64 -432l-172 -18z" />
    <glyph glyph-name="bracketright" unicode="]" horiz-adv-x="282" 
d="M88 342l-2 296l-85 2v149h244l-3 -447l3 -441h-244v149l85 2z" />
    <glyph glyph-name="asciicircum" unicode="^" horiz-adv-x="372" 
d="M5 435l103 308h155l105 -308l-135 -37l-49 190l-46 -190z" />
    <glyph glyph-name="underscore" unicode="_" horiz-adv-x="315" 
d="M314 -189h-313v156h313v-156z" />
    <glyph glyph-name="a" unicode="a" horiz-adv-x="480" 
d="M303 0l-14 119l-52 -3l-55 4l-17 -120h-169l123 687l253 8l112 -695h-181zM202 273l35 3l34 -3l-32 269z" />
    <glyph glyph-name="b" unicode="b" horiz-adv-x="484" 
d="M40 -2l4 359l-4 325l369 17c28 -53 48 -115 48 -169c0 -59 -23 -106 -61 -146c45 -48 73 -107 73 -172c0 -93 -58 -160 -192 -210zM286 225c0 25 -10 47 -27 68c-17 -9 -36 -17 -54 -24l1 -138c55 21 80 53 80 94zM206 549l-1 -143c43 22 74 47 74 88c0 19 -6 42 -10 55
h-63z" />
    <glyph glyph-name="c" unicode="c" horiz-adv-x="462" 
d="M424 435l-162 -5l-2 113h-48c-12 -58 -19 -108 -19 -164c0 -92 16 -179 67 -232l7 137l162 4l-5 -279l-256 -16c-111 102 -148 223 -148 372c0 104 19 211 55 317l352 16z" />
    <glyph glyph-name="d" unicode="d" horiz-adv-x="478" 
d="M40 -2l2 348l-3 336l344 16c52 -119 74 -229 74 -331c0 -143 -44 -265 -165 -366zM205 356l2 -226c52 45 77 113 77 208c0 62 -11 131 -34 208h-45v-190z" />
    <glyph glyph-name="e" unicode="e" horiz-adv-x="473" 
d="M276 229l161 4v-233h-398l4 355l-4 325l398 19l-1 -209l-162 -5l-1 63h-66v-118l169 8v-157l-169 4v-146l68 4z" />
    <glyph glyph-name="f" unicode="f" horiz-adv-x="466" 
d="M221 0h-182l6 338l-5 342l406 19l-2 -236l-161 -5l-1 85h-62v-151l169 9v-174l-169 4z" />
    <glyph glyph-name="g" unicode="g" horiz-adv-x="485" 
d="M437 8l-230 -16c-136 90 -191 221 -191 378c0 98 22 207 59 312l360 16l-1 -222l-165 -2l-2 72h-58c-12 -52 -18 -111 -18 -165c0 -98 22 -196 91 -255l-1 136l-49 3v138h245v-139l-38 -2z" />
    <glyph glyph-name="h" unicode="h" horiz-adv-x="520" 
d="M220 690l-1 -253l41 3l41 -3l-1 253h182l-6 -342l6 -348h-182l1 264l-41 -4l-41 4l1 -264h-182l6 348l-6 342h182z" />
    <glyph glyph-name="i" unicode="i" horiz-adv-x="258" 
d="M38 690h182l-4 -335l4 -355h-182l4 355z" />
    <glyph glyph-name="j" unicode="j" horiz-adv-x="467" 
d="M36 266l162 4l4 -122c47 54 61 111 61 207c0 57 -4 133 -9 188h-52l-3 -107l-161 -2l-3 246l387 18c10 -110 17 -231 17 -310c0 -170 -23 -290 -181 -385l-217 -6z" />
    <glyph glyph-name="k" unicode="k" horiz-adv-x="498" 
d="M38 690h182l-1 -272c64 72 75 156 75 270l180 4c0 -132 -5 -239 -91 -343l125 -349h-197l-65 230l-27 -18l1 -212h-182l6 350z" />
    <glyph glyph-name="l" unicode="l" horiz-adv-x="456" 
d="M285 257l163 1l-2 -258h-406l4 272l-5 418h182l-3 -544l63 6z" />
    <glyph glyph-name="m" unicode="m" horiz-adv-x="715" 
d="M453 28l-197 -4l-37 267l-34 239l7 -530h-157l12 687l253 6l32 -260l28 -241l27 242l33 253l248 5l12 -692h-162l6 530l-33 -235z" />
    <glyph glyph-name="n" unicode="n" horiz-adv-x="535" 
d="M188 0h-153l7 688l216 5l94 -488l-10 485h154l-8 -689l-216 -4l-95 491z" />
    <glyph glyph-name="o" unicode="o" horiz-adv-x="474" 
d="M346 2l-219 -3c-73 92 -113 235 -113 351c0 117 41 244 114 339l219 4c73 -94 113 -236 113 -352c0 -118 -42 -244 -114 -339zM232 548c-26 -64 -38 -134 -38 -198c0 -77 16 -143 48 -207c25 63 38 132 38 199c0 76 -16 143 -48 206z" />
    <glyph glyph-name="p" unicode="p" horiz-adv-x="464" 
d="M213 547l-1 -218c51 26 72 71 72 132c0 26 -4 53 -11 86h-60zM221 0h-182l4 348l-4 334l377 16c24 -84 37 -157 37 -220c0 -144 -67 -244 -235 -314z" />
    <glyph glyph-name="q" unicode="q" horiz-adv-x="471" 
d="M458 347c0 -93 -21 -180 -70 -256l103 -140l-143 -103l-104 153l-133 -5c-61 105 -99 226 -99 348c0 132 44 250 144 344l203 8c62 -106 99 -226 99 -349zM228 149c37 54 52 116 52 182c0 69 -15 137 -37 211c-37 -54 -52 -116 -52 -183c0 -68 16 -137 37 -210z" />
    <glyph glyph-name="r" unicode="r" horiz-adv-x="469" 
d="M212 0h-173l4 349l-4 333l375 16c17 -57 30 -123 30 -183c0 -76 -20 -136 -74 -187l108 -328h-190l-60 240l-17 -7zM208 551l-2 -154c53 23 72 56 72 97c0 19 -4 43 -9 57h-61z" />
    <glyph glyph-name="s" unicode="s" horiz-adv-x="402" 
d="M22 234l156 5l8 -102c31 22 54 46 54 72c0 76 -231 80 -231 264c0 103 72 168 177 218l180 4l2 -223l-150 -2l-3 89c-24 -12 -45 -39 -45 -64c0 -78 231 -86 231 -263c0 -95 -67 -158 -174 -229l-194 -6z" />
    <glyph glyph-name="t" unicode="t" horiz-adv-x="423" 
d="M121 0l4 522l-124 -6v174h421v-174l-123 6l4 -522h-182z" />
    <glyph glyph-name="u" unicode="u" horiz-adv-x="516" 
d="M294 686l182 9c0 -12 -4 -212 -4 -313c0 -86 1 -156 22 -376l-178 -13l-10 115l-75 -103l-172 -12c-14 152 -16 255 -17 349l-3 344l184 9c0 -12 -3 -190 -3 -282c0 -78 1 -143 6 -212l69 83z" />
    <glyph glyph-name="v" unicode="v" horiz-adv-x="471" 
d="M184 690l53 -524l63 524h167l-116 -687l-242 -8l-105 695h180z" />
    <glyph glyph-name="w" unicode="w" horiz-adv-x="694" 
d="M526 690h159l-58 -690h-241l-24 262l-18 233l-18 -235l-24 -260h-236l-56 690h164l30 -538l18 228l25 270l206 4l25 -276l17 -226z" />
    <glyph glyph-name="x" unicode="x" horiz-adv-x="489" 
d="M494 690l-117 -341l120 -327l-177 -51l-77 271l-55 -242h-192l118 351l-119 317l177 51l75 -260l54 231h193z" />
    <glyph glyph-name="y" unicode="y" horiz-adv-x="477" 
d="M144 0l3 234l-160 434l179 51l76 -291l58 262h190l-166 -471l2 -219h-182z" />
    <glyph glyph-name="z" unicode="z" horiz-adv-x="460" 
d="M186 444l-150 2l4 234l381 20l5 -199l-237 -372l97 9l5 106l153 1l-5 -245h-417l-5 163l255 387h-81z" />
    <glyph glyph-name="braceleft" unicode="{" horiz-adv-x="270" 
d="M215 813l73 -120c-59 -37 -74 -77 -74 -119c0 -37 12 -75 12 -113c0 -40 -13 -79 -68 -116c55 -37 68 -76 68 -116c0 -38 -12 -76 -12 -113c0 -42 15 -82 74 -119l-73 -120c-139 62 -163 134 -163 202c0 36 7 71 7 104c0 36 -9 68 -48 93v138c39 25 48 57 48 93
c0 33 -7 68 -7 104c0 68 24 140 163 202z" />
    <glyph glyph-name="bar" unicode="|" horiz-adv-x="239" 
d="M37 738h166l-4 -450l4 -476h-166l4 476z" />
    <glyph glyph-name="braceright" unicode="}" horiz-adv-x="270" 
d="M55 -123l-74 120c60 37 74 77 74 119c0 37 -12 74 -12 112c0 40 14 79 69 117c-55 38 -69 77 -69 117c0 38 12 75 12 112c0 42 -14 82 -74 119l74 120c139 -62 163 -134 163 -202c0 -36 -7 -71 -7 -103c0 -37 9 -69 48 -94v-138c-39 -25 -48 -57 -48 -94
c0 -32 7 -67 7 -103c0 -68 -24 -140 -163 -202z" />
    <glyph glyph-name="asciitilde" unicode="~" horiz-adv-x="372" 
d="M291 453l97 -115c-58 -62 -100 -100 -149 -100c-51 0 -84 41 -108 41c-14 0 -26 -15 -50 -42l-96 115c57 62 99 100 148 100c51 0 84 -41 108 -41c14 0 26 14 50 42z" />
    <glyph glyph-name="quotesingle" unicode="'" horiz-adv-x="226" 
d="M181 425h-135l-5 265h145z" />
    <glyph glyph-name="grave" unicode="`" horiz-adv-x="202" 
d="M201 612l-125 -88l-131 154l139 98z" />
    </font>
</defs>
</svg>
