<?xml version="1.0" standalone="no"?>
<!DOCTYPE svg PUBLIC "-//W3C//DTD SVG 1.1//EN" "http://www.w3.org/Graphics/SVG/1.1/DTD/svg11.dtd" >
<svg xmlns="http://www.w3.org/2000/svg">
<metadata>
Created by FontForge 20100212 at Mon Apr 12 13:07:10 2010
 By Chris Lilley,,,
Copyright (c) Tim Ahrens, 2003. All rights reserved.
Converted to SVG and subsetted with permission.
</metadata>
<defs>
<font id="ZCR" horiz-adv-x="400" >
  <font-face 
    font-family="ZC"
    font-weight="400"
    font-variant="small-caps"
    font-stretch="normal"
    units-per-em="1000"
    panose-1="0 0 5 0 0 0 0 0 0 0"
    ascent="696"
    descent="-304"
    x-height="690"
    cap-height="690"
    bbox="-8 -198 680 800"
    underline-thickness="150"
    underline-position="-150"
    stemh="206"
    stemv="296"
    unicode-range="U+0-7F"
  />
    <missing-glyph horiz-adv-x="500" 
d="M50 0v533h400v-533h-400zM100 50h300v433h-300v-433z" />
    <glyph glyph-name="space" unicode=" " horiz-adv-x="189" 
 />
    <glyph glyph-name="exclam" unicode="!" horiz-adv-x="244" 
d="M78 706l106 7l-5 -249l1 -251l-97 -8v251zM200 12l-107 -24l-20 108l106 24z" />
    <glyph glyph-name="quotedbl" unicode="&#x22;" horiz-adv-x="350" 
d="M143 465h-83l-4 225h90zM290 465h-83l-3 225h89z" />
    <glyph glyph-name="numbersign" unicode="#" 
d="M11 259h61l14 172h-57v78h63l14 181h83l-14 -181h74l14 181h83l-14 -181h56v-78h-63l-13 -172h58v-78h-64l-15 -181h-83l15 181h-74l-14 -181h-83l14 181h-55v78zM169 431l-14 -172h74l13 172h-73z" />
    <glyph glyph-name="dollar" unicode="$" 
d="M260 765l-1 -119l74 2v-174l-86 -1v98c-63 -17 -106 -51 -106 -91c0 -89 222 -102 222 -244c0 -58 -40 -104 -104 -147l1 -144h-103l1 94l-90 -3l-12 192l88 4l10 -116c63 31 115 69 115 109c0 82 -222 96 -222 243c0 64 45 112 111 147l-1 150h103z" />
    <glyph glyph-name="percent" unicode="%" horiz-adv-x="703" 
d="M182 298l-94 -4c-40 63 -66 132 -66 200c0 76 32 143 103 195l94 4c40 -63 66 -132 66 -200c0 -76 -31 -142 -103 -195zM143 361c41 36 61 78 61 126c0 45 -17 92 -40 139c-41 -36 -61 -78 -61 -126c0 -44 17 -92 40 -139zM577 1l-93 -3c-41 62 -66 131 -66 200
c0 75 31 142 102 195l94 4c41 -63 66 -133 66 -201c0 -75 -31 -142 -103 -195zM538 64c41 36 61 78 61 126c0 45 -17 92 -39 140c-42 -36 -61 -78 -61 -126c0 -45 17 -92 39 -140zM646 669l-273 -354l-243 -344l-73 49l272 353l244 346z" />
    <glyph glyph-name="ampersand" unicode="&#x26;" horiz-adv-x="573" 
d="M432 461l71 -53l-145 -221l81 -115l25 124l75 -17l-39 -176l-102 -8l-90 117l-74 -112l-124 -8c-62 77 -85 138 -85 190c0 77 52 133 110 183c-33 59 -51 108 -51 152c0 58 31 108 100 172l121 9c49 -56 68 -105 68 -147c0 -79 -66 -137 -129 -193l62 -96zM124 186
c0 -35 17 -75 56 -124l76 121c-30 40 -57 78 -79 112c-31 -33 -53 -68 -53 -109zM179 522c0 -27 8 -56 27 -96c40 36 71 73 71 117c0 27 -11 57 -35 90c-43 -39 -63 -70 -63 -111z" />
    <glyph glyph-name="parenleft" unicode="(" horiz-adv-x="251" 
d="M245 -65l-84 -45c-80 147 -120 301 -120 454c0 157 42 312 123 456l82 -43c-70 -127 -104 -270 -104 -412s34 -284 103 -410z" />
    <glyph glyph-name="parenright" unicode=")" horiz-adv-x="251" 
d="M7 755l83 45c81 -147 120 -301 120 -454c0 -157 -41 -312 -123 -456l-81 43c69 127 104 270 104 412s-35 284 -103 410z" />
    <glyph glyph-name="asterisk" unicode="*" horiz-adv-x="363" 
d="M301 430l-63 -38l-56 123l-56 -123l-64 38l74 120l-110 39l30 71l97 -53l-9 152h75l-9 -152l97 53l30 -71l-110 -39z" />
    <glyph glyph-name="plus" unicode="+" horiz-adv-x="392" 
d="M370 296l-130 3l3 -180h-94l3 180l-130 -3v98l130 -3l-3 180h94l-3 -180l130 3v-98z" />
    <glyph glyph-name="comma" unicode="," horiz-adv-x="201" 
d="M59 105l90 3l-14 -212l-79 -1z" />
    <glyph glyph-name="hyphen" unicode="-" horiz-adv-x="245" 
d="M123 302l-103 -3v92l103 -3l101 3v-92z" />
    <glyph glyph-name="period" unicode="." horiz-adv-x="207" 
d="M166 14l-105 -26l-20 107l105 26z" />
    <glyph glyph-name="slash" unicode="/" horiz-adv-x="265" 
d="M248 761l-75 -422l-62 -422l-95 12l74 420l64 424z" />
    <glyph glyph-name="zero" unicode="0" 
d="M217 2l-97 -6c-62 116 -101 238 -101 355c0 133 50 248 163 340l98 5c62 -117 100 -239 100 -355c0 -133 -49 -248 -163 -339zM177 70c79 72 118 160 118 264c0 96 -33 197 -73 288c-79 -72 -117 -160 -117 -264c0 -96 33 -197 72 -288zM253 324l-81 -30l-25 74l80 30z
" />
    <glyph glyph-name="one" unicode="1" horiz-adv-x="329" 
d="M115 688l98 5l-1 -426v-183l114 -3v-81h-323v81l114 3v183z" />
    <glyph glyph-name="two" unicode="2" 
d="M67 481l3 203l119 12c107 -64 148 -135 148 -212c0 -129 -114 -271 -224 -413l162 9l6 129l84 1l-4 -210h-335l-6 85c145 186 222 295 222 387c0 57 -29 101 -88 140l-5 -131h-82z" />
    <glyph glyph-name="three" unicode="3" 
d="M346 602l-105 -186c85 -51 119 -111 119 -174c0 -103 -94 -199 -186 -240l-113 -4l-7 210l84 2l7 -135c64 27 120 86 120 154c0 53 -37 107 -131 159l126 225h-126l-3 -115l-84 1l2 184l295 13z" />
    <glyph glyph-name="four" unicode="4" 
d="M220 521h91l-2 -286l94 2v-84l-93 2l2 -155h-92l2 155l-207 -1l-4 76l123 472l87 -24l-117 -443l118 -1z" />
    <glyph glyph-name="five" unicode="5" 
d="M329 512l-86 -1l-4 100h-96l-4 -155c163 -51 228 -134 228 -219c0 -90 -72 -176 -190 -236l-114 -3l-8 207l84 3l8 -133c79 39 126 93 126 151c0 71 -72 126 -215 167l6 291l265 12v-184z" />
    <glyph glyph-name="six" unicode="6" 
d="M226 679c-61 -122 -97 -232 -100 -345l130 111l77 8c27 -66 41 -144 41 -198c0 -114 -58 -198 -159 -253l-104 -4c-53 108 -75 211 -75 312c0 132 38 248 100 396zM262 366l-134 -109c7 -63 24 -124 52 -186c75 46 105 105 105 177c0 35 -8 77 -23 118z" />
    <glyph glyph-name="seven" unicode="7" 
d="M121 477l-84 2l4 204l327 15l7 -92l-198 -623l-94 26l200 599h-156z" />
    <glyph glyph-name="eight" unicode="8" 
d="M28 191c0 56 26 121 89 178c-45 35 -81 77 -81 140c0 69 44 128 123 181l100 8c58 -49 93 -109 93 -174c0 -51 -22 -110 -78 -164c54 -37 102 -81 102 -158c0 -84 -57 -153 -137 -202l-109 -8c-59 53 -102 127 -102 199zM282 188c0 60 -46 97 -99 134
c-48 -44 -64 -92 -64 -127c0 -48 26 -97 71 -137c62 36 92 80 92 130zM123 517c0 -53 41 -86 90 -117c35 33 51 78 51 113c0 40 -21 85 -61 121c-56 -34 -80 -74 -80 -117z" />
    <glyph glyph-name="nine" unicode="9" 
d="M161 10c68 125 107 239 111 358l-131 -110l-77 -7c-24 58 -38 130 -38 185c0 118 61 199 164 253l104 2c48 -105 68 -202 68 -297c0 -138 -42 -260 -111 -409zM115 439c0 -40 9 -71 20 -104l135 109c-6 57 -20 116 -45 175c-81 -47 -110 -103 -110 -180z" />
    <glyph glyph-name="colon" unicode=":" horiz-adv-x="181" 
d="M154 172l-102 -26l-20 104l102 26zM154 440l-102 -26l-20 104l102 26z" />
    <glyph glyph-name="semicolon" unicode=";" horiz-adv-x="207" 
d="M167 335l-102 -26l-19 104l102 26zM65 105l90 3l-14 -212l-78 -1z" />
    <glyph glyph-name="less" unicode="&#x3c;" horiz-adv-x="392" 
d="M297 135l-257 165v90l257 165l50 -77l-225 -132l225 -133z" />
    <glyph glyph-name="equal" unicode="=" horiz-adv-x="392" 
d="M360 389l-164 3l-164 -3v88l164 -3l164 3v-88zM360 213l-164 3l-164 -3v88l164 -3l164 3v-88z" />
    <glyph glyph-name="greater" unicode="&#x3e;" horiz-adv-x="392" 
d="M95 555l257 -165v-90l-257 -165l-50 77l225 132l-225 133z" />
    <glyph glyph-name="question" unicode="?" horiz-adv-x="325" 
d="M58 636l14 100c177 -27 245 -107 245 -195c0 -126 -141 -158 -141 -256c0 -26 10 -71 19 -94l-94 -27c-15 35 -24 93 -24 128c0 136 137 161 137 240c0 48 -45 85 -156 104zM225 11l-105 -23l-18 97l104 23z" />
    <glyph glyph-name="at" unicode="@" horiz-adv-x="600" 
d="M553 164l27 -69c-67 -38 -154 -65 -239 -65c-159 0 -318 96 -318 316c0 210 144 314 296 314c164 0 260 -121 260 -256c0 -133 -92 -233 -218 -233c-114 0 -182 81 -182 175c0 82 51 155 145 155c57 0 103 -26 132 -89l-57 -36c-19 29 -44 46 -72 46
c-39 0 -65 -35 -65 -79c0 -51 33 -92 95 -92c66 0 132 46 132 146c0 99 -66 176 -172 176c-119 0 -204 -99 -204 -227c0 -130 89 -239 242 -239c67 0 136 21 198 57z" />
    <glyph glyph-name="A" unicode="A" horiz-adv-x="421" 
d="M314 0l-32 183l-72 -2l-75 2l-34 -183h-94l138 688l137 7l132 -695h-100zM150 267l61 3l56 -2l-57 331z" />
    <glyph glyph-name="B" unicode="B" horiz-adv-x="436" 
d="M66 -2l3 360l-3 326l281 12c25 -48 42 -103 42 -152c0 -67 -30 -118 -76 -158c52 -47 88 -113 88 -183c0 -95 -68 -164 -212 -202zM302 209c0 49 -26 93 -64 128c-25 -13 -52 -24 -81 -33l1 -227c101 25 144 69 144 132zM158 610l-1 -224c75 28 134 71 134 139
c0 31 -10 62 -20 85h-113z" />
    <glyph glyph-name="C" unicode="C" horiz-adv-x="411" 
d="M358 482l-87 -3l-1 130h-103c-22 -73 -35 -147 -35 -225c0 -123 31 -233 138 -305l5 156l87 1l-3 -230l-132 -12c-142 94 -190 220 -190 383c0 102 19 207 54 307l269 12z" />
    <glyph glyph-name="D" unicode="D" horiz-adv-x="433" 
d="M66 -3l1 349l-1 338l256 12c53 -128 76 -241 76 -338c0 -148 -54 -268 -201 -359zM156 356l1 -281c100 58 145 142 145 269c0 77 -16 166 -53 266h-92z" />
    <glyph glyph-name="E" unicode="E" horiz-adv-x="430" 
d="M293 203l87 1l-2 -204h-312l2 352l-2 330l313 14l-2 -184l-87 -2l-1 102h-131v-216l163 6v-91l-163 4v-240l132 5z" />
    <glyph glyph-name="F" unicode="F" horiz-adv-x="423" 
d="M164 0h-98l3 335l-3 347l320 14l-2 -192l-87 -2l-1 107h-133v-238l167 5v-96l-167 4z" />
    <glyph glyph-name="G" unicode="G" horiz-adv-x="436" 
d="M367 6l-123 -12c-153 88 -209 216 -209 384c0 102 20 208 56 306l275 12l-2 -186l-89 -1l-1 101h-108c-23 -72 -35 -148 -35 -226c0 -126 33 -240 151 -314l-1 212l-69 3v77h199v-77l-41 -3z" />
    <glyph glyph-name="H" unicode="H" horiz-adv-x="487" 
d="M163 690v-293l81 3l81 -3l-1 293h98l-3 -342l3 -348h-98l1 307l-81 -3l-81 3v-307h-98l4 348l-4 342h98z" />
    <glyph glyph-name="I" unicode="I" horiz-adv-x="228" 
d="M65 690h99l-3 -338l2 -352h-98l2 352z" />
    <glyph glyph-name="J" unicode="J" horiz-adv-x="404" 
d="M46 220l88 2l6 -140c95 64 123 135 123 271c0 76 -8 180 -16 256h-105l-1 -131l-88 -1l-1 206l286 13c13 -115 21 -235 21 -324c0 -163 -23 -276 -189 -370l-117 -4z" />
    <glyph glyph-name="K" unicode="K" horiz-adv-x="449" 
d="M65 690h98v-318c123 94 138 183 138 317l96 2c0 -129 -9 -235 -115 -338l157 -353h-107l-125 291l-44 -29v-262h-98l4 348z" />
    <glyph glyph-name="L" unicode="L" 
d="M290 220l88 1l-2 -221h-310l3 246l-3 444h98l-2 -610l125 7z" />
    <glyph glyph-name="M" unicode="M" horiz-adv-x="648" 
d="M378 24l-112 -4l-63 300l-54 277l4 -597h-89l8 689l141 3l63 -314l49 -265l49 267l65 308l138 3l7 -691h-91l4 596l-55 -273z" />
    <glyph glyph-name="N" unicode="N" horiz-adv-x="500" 
d="M152 0h-89l5 688l123 5l160 -572l-5 569h88l-4 -689l-124 -4l-160 573z" />
    <glyph glyph-name="O" unicode="O" horiz-adv-x="421" 
d="M266 2l-113 -5c-84 96 -126 230 -126 349c0 121 44 243 128 343l113 4c84 -96 126 -230 126 -349c0 -121 -44 -243 -128 -342zM209 614c-56 -77 -84 -174 -84 -267c0 -100 31 -196 87 -271c55 76 84 172 84 268c0 100 -31 196 -87 270z" />
    <glyph glyph-name="P" unicode="P" horiz-adv-x="410" 
d="M161 611l-1 -310c89 32 128 100 128 194c0 36 -5 74 -16 116h-111zM164 0h-98l2 348l-2 336l285 12c20 -69 31 -133 31 -190c0 -141 -66 -239 -220 -295z" />
    <glyph glyph-name="Q" unicode="Q" horiz-adv-x="426" 
d="M237 2l-109 -6c-63 117 -101 239 -101 355c0 131 48 247 161 339l110 6c63 -118 100 -239 100 -355c0 -89 -22 -171 -71 -244l105 -167l-70 -55l-92 155c-11 -10 -21 -19 -33 -28zM172 186l70 53l30 -51c21 45 30 94 30 145c0 93 -30 190 -69 280
c-77 -71 -109 -159 -109 -254c0 -93 30 -190 68 -280c11 10 21 20 30 30z" />
    <glyph glyph-name="R" unicode="R" horiz-adv-x="424" 
d="M160 0h-94l2 349l-2 335l281 12c18 -52 29 -109 29 -162c0 -82 -29 -148 -100 -200l131 -334h-106l-104 290c-12 -5 -25 -10 -38 -14zM158 613v-246c91 30 126 85 126 156c0 33 -8 65 -16 90h-110z" />
    <glyph glyph-name="S" unicode="S" horiz-adv-x="363" 
d="M42 214l88 4l9 -136c59 37 107 81 107 130c0 98 -213 116 -213 279c0 98 78 162 177 199l99 3l1 -194l-86 -1l-1 115c-59 -21 -97 -59 -97 -109c0 -107 212 -123 212 -280c0 -90 -71 -155 -178 -222l-106 -4z" />
    <glyph glyph-name="T" unicode="T" horiz-adv-x="390" 
d="M146 0l2 604l-141 -5v91h376v-91l-141 5l2 -604h-98z" />
    <glyph glyph-name="U" unicode="U" horiz-adv-x="485" 
d="M320 687l99 6c0 -10 -4 -245 -4 -349c0 -80 3 -150 20 -341l-98 -7l-12 168l-138 -162l-99 -6c-19 162 -20 263 -21 363l-2 328l100 6c0 -11 -2 -195 -2 -290c0 -136 4 -199 14 -294l143 156v422z" />
    <glyph glyph-name="V" unicode="V" horiz-adv-x="430" 
d="M114 690l101 -594l106 594h92l-136 -688l-130 -7l-129 695h96z" />
    <glyph glyph-name="W" unicode="W" horiz-adv-x="620" 
d="M509 690h90l-80 -690l-131 -1l-44 301l-37 271l-36 -272l-44 -299l-129 -1l-76 691h92l59 -597l35 262l46 309l115 3l44 -315l35 -259z" />
    <glyph glyph-name="X" unicode="X" horiz-adv-x="428" 
d="M414 690l-133 -332l140 -345l-94 -32l-116 312l-98 -293h-104l137 353l-135 325l94 32l110 -290l93 270h106z" />
    <glyph glyph-name="Y" unicode="Y" horiz-adv-x="423" 
d="M161 0l2 240l-158 439l95 28l114 -358l101 341h104l-162 -456l2 -234h-98z" />
    <glyph glyph-name="Z" unicode="Z" horiz-adv-x="423" 
d="M135 481l-84 2l5 200l313 15l7 -101l-252 -526l174 10l7 134l85 -1l-7 -214h-348l-6 84l260 528h-149z" />
    <glyph glyph-name="bracketleft" unicode="[" horiz-adv-x="251" 
d="M153 355l2 -365l89 -3v-84h-180l2 453l-2 431h180v-85l-89 -2z" />
    <glyph glyph-name="backslash" unicode="\" horiz-adv-x="265" 
d="M92 339l-76 422l95 12l64 -424l73 -420l-94 -12z" />
    <glyph glyph-name="bracketright" unicode="]" horiz-adv-x="251" 
d="M98 335l-2 365l-89 3v84h180l-2 -453l2 -431h-180v85l89 2z" />
    <glyph glyph-name="asciicircum" unicode="^" horiz-adv-x="392" 
d="M38 421l113 322h89l114 -322l-78 -23l-81 256l-81 -256z" />
    <glyph glyph-name="underscore" unicode="_" horiz-adv-x="301" 
d="M294 -139h-287v89h287v-89z" />
    <glyph glyph-name="a" unicode="a" horiz-adv-x="421" 
d="M314 0l-32 183l-72 -2l-75 2l-34 -183h-94l138 688l137 7l132 -695h-100zM150 267l61 3l56 -2l-57 331z" />
    <glyph glyph-name="b" unicode="b" horiz-adv-x="436" 
d="M66 -2l3 360l-3 326l281 12c25 -48 42 -103 42 -152c0 -67 -30 -118 -76 -158c52 -47 88 -113 88 -183c0 -95 -68 -164 -212 -202zM302 209c0 49 -26 93 -64 128c-25 -13 -52 -24 -81 -33l1 -227c101 25 144 69 144 132zM158 610l-1 -224c75 28 134 71 134 139
c0 31 -10 62 -20 85h-113z" />
    <glyph glyph-name="c" unicode="c" horiz-adv-x="411" 
d="M358 482l-87 -3l-1 130h-103c-22 -73 -35 -147 -35 -225c0 -123 31 -233 138 -305l5 156l87 1l-3 -230l-132 -12c-142 94 -190 220 -190 383c0 102 19 207 54 307l269 12z" />
    <glyph glyph-name="d" unicode="d" horiz-adv-x="433" 
d="M66 -3l1 349l-1 338l256 12c53 -128 76 -241 76 -338c0 -148 -54 -268 -201 -359zM156 356l1 -281c100 58 145 142 145 269c0 77 -16 166 -53 266h-92z" />
    <glyph glyph-name="e" unicode="e" horiz-adv-x="430" 
d="M293 203l87 1l-2 -204h-312l2 352l-2 330l313 14l-2 -184l-87 -2l-1 102h-131v-216l163 6v-91l-163 4v-240l132 5z" />
    <glyph glyph-name="f" unicode="f" horiz-adv-x="423" 
d="M164 0h-98l3 335l-3 347l320 14l-2 -192l-87 -2l-1 107h-133v-238l167 5v-96l-167 4z" />
    <glyph glyph-name="g" unicode="g" horiz-adv-x="436" 
d="M367 6l-123 -12c-153 88 -209 216 -209 384c0 102 20 208 56 306l275 12l-2 -186l-89 -1l-1 101h-108c-23 -72 -35 -148 -35 -226c0 -126 33 -240 151 -314l-1 212l-69 3v77h199v-77l-41 -3z" />
    <glyph glyph-name="h" unicode="h" horiz-adv-x="487" 
d="M163 690v-293l81 3l81 -3l-1 293h98l-3 -342l3 -348h-98l1 307l-81 -3l-81 3v-307h-98l4 348l-4 342h98z" />
    <glyph glyph-name="i" unicode="i" horiz-adv-x="228" 
d="M65 690h99l-3 -338l2 -352h-98l2 352z" />
    <glyph glyph-name="j" unicode="j" horiz-adv-x="404" 
d="M46 220l88 2l6 -140c95 64 123 135 123 271c0 76 -8 180 -16 256h-105l-1 -131l-88 -1l-1 206l286 13c13 -115 21 -235 21 -324c0 -163 -23 -276 -189 -370l-117 -4z" />
    <glyph glyph-name="k" unicode="k" horiz-adv-x="449" 
d="M65 690h98v-318c123 94 138 183 138 317l96 2c0 -129 -9 -235 -115 -338l157 -353h-107l-125 291l-44 -29v-262h-98l4 348z" />
    <glyph glyph-name="l" unicode="l" 
d="M290 220l88 1l-2 -221h-310l3 246l-3 444h98l-2 -610l125 7z" />
    <glyph glyph-name="m" unicode="m" horiz-adv-x="648" 
d="M378 24l-112 -4l-63 300l-54 277l4 -597h-89l8 689l141 3l63 -314l49 -265l49 267l65 308l138 3l7 -691h-91l4 596l-55 -273z" />
    <glyph glyph-name="n" unicode="n" horiz-adv-x="500" 
d="M152 0h-89l5 688l123 5l160 -572l-5 569h88l-4 -689l-124 -4l-160 573z" />
    <glyph glyph-name="o" unicode="o" horiz-adv-x="421" 
d="M266 2l-113 -5c-84 96 -126 230 -126 349c0 121 44 243 128 343l113 4c84 -96 126 -230 126 -349c0 -121 -44 -243 -128 -342zM209 614c-56 -77 -84 -174 -84 -267c0 -100 31 -196 87 -271c55 76 84 172 84 268c0 100 -31 196 -87 270z" />
    <glyph glyph-name="p" unicode="p" horiz-adv-x="410" 
d="M161 611l-1 -310c89 32 128 100 128 194c0 36 -5 74 -16 116h-111zM164 0h-98l2 348l-2 336l285 12c20 -69 31 -133 31 -190c0 -141 -66 -239 -220 -295z" />
    <glyph glyph-name="q" unicode="q" horiz-adv-x="426" 
d="M237 2l-109 -6c-63 117 -101 239 -101 355c0 131 48 247 161 339l110 6c63 -118 100 -239 100 -355c0 -89 -22 -171 -71 -244l105 -167l-70 -55l-92 155c-11 -10 -21 -19 -33 -28zM172 186l70 53l30 -51c21 45 30 94 30 145c0 93 -30 190 -69 280
c-77 -71 -109 -159 -109 -254c0 -93 30 -190 68 -280c11 10 21 20 30 30z" />
    <glyph glyph-name="r" unicode="r" horiz-adv-x="424" 
d="M160 0h-94l2 349l-2 335l281 12c18 -52 29 -109 29 -162c0 -82 -29 -148 -100 -200l131 -334h-106l-104 290c-12 -5 -25 -10 -38 -14zM158 613v-246c91 30 126 85 126 156c0 33 -8 65 -16 90h-110z" />
    <glyph glyph-name="s" unicode="s" horiz-adv-x="363" 
d="M42 214l88 4l9 -136c59 37 107 81 107 130c0 98 -213 116 -213 279c0 98 78 162 177 199l99 3l1 -194l-86 -1l-1 115c-59 -21 -97 -59 -97 -109c0 -107 212 -123 212 -280c0 -90 -71 -155 -178 -222l-106 -4z" />
    <glyph glyph-name="t" unicode="t" horiz-adv-x="390" 
d="M146 0l2 604l-141 -5v91h376v-91l-141 5l2 -604h-98z" />
    <glyph glyph-name="u" unicode="u" horiz-adv-x="485" 
d="M320 687l99 6c0 -10 -4 -245 -4 -349c0 -80 3 -150 20 -341l-98 -7l-12 168l-138 -162l-99 -6c-19 162 -20 263 -21 363l-2 328l100 6c0 -11 -2 -195 -2 -290c0 -136 4 -199 14 -294l143 156v422z" />
    <glyph glyph-name="v" unicode="v" horiz-adv-x="430" 
d="M114 690l101 -594l106 594h92l-136 -688l-130 -7l-129 695h96z" />
    <glyph glyph-name="w" unicode="w" horiz-adv-x="620" 
d="M509 690h90l-80 -690l-131 -1l-44 301l-37 271l-36 -272l-44 -299l-129 -1l-76 691h92l59 -597l35 262l46 309l115 3l44 -315l35 -259z" />
    <glyph glyph-name="x" unicode="x" horiz-adv-x="428" 
d="M414 690l-133 -332l140 -345l-94 -32l-116 312l-98 -293h-104l137 353l-135 325l94 32l110 -290l93 270h106z" />
    <glyph glyph-name="y" unicode="y" horiz-adv-x="423" 
d="M161 0l2 240l-158 439l95 28l114 -358l101 341h104l-162 -456l2 -234h-98z" />
    <glyph glyph-name="z" unicode="z" horiz-adv-x="423" 
d="M135 481l-84 2l5 200l313 15l7 -101l-252 -526l174 10l7 134l85 -1l-7 -214h-348l-6 84l260 528h-149z" />
    <glyph glyph-name="braceleft" unicode="{" horiz-adv-x="242" 
d="M208 799l41 -70c-74 -42 -91 -90 -91 -141c0 -40 10 -81 10 -122s-10 -82 -54 -121c44 -39 54 -80 54 -121s-10 -82 -10 -122c0 -51 17 -99 91 -141l-41 -70c-119 57 -141 124 -141 190c0 40 7 79 7 116c0 39 -8 75 -42 107v82c34 32 43 68 43 107c0 37 -8 77 -8 116
c0 66 22 133 141 190z" />
    <glyph glyph-name="bar" unicode="|" horiz-adv-x="221" 
d="M63 733h95l-2 -456l2 -475h-95l2 475z" />
    <glyph glyph-name="braceright" unicode="}" horiz-adv-x="242" 
d="M34 -109l-41 70c74 42 90 90 90 141c0 39 -10 79 -10 119c0 43 11 85 55 124c-44 40 -55 81 -55 124c0 40 10 80 10 119c0 51 -16 99 -90 141l41 70c119 -57 141 -124 141 -190c0 -39 -8 -79 -8 -116c0 -38 9 -75 42 -107v-82c-33 -32 -42 -68 -42 -107
c0 -37 8 -76 8 -115c0 -67 -22 -134 -141 -191z" />
    <glyph glyph-name="asciitilde" unicode="~" horiz-adv-x="392" 
d="M325 413l57 -61c-36 -46 -71 -80 -118 -80c-57 0 -99 52 -138 52c-25 0 -41 -22 -59 -47l-57 60c36 47 71 81 118 81c57 0 99 -52 137 -52c25 0 42 21 60 47z" />
    <glyph glyph-name="quotesingle" unicode="'" horiz-adv-x="202" 
d="M143 465h-83l-4 225h90z" />
    <glyph glyph-name="grave" unicode="`" horiz-adv-x="214" 
d="M172 595l-70 -51l-110 127l79 59z" />
    </font>
</defs>
</svg>
